east-algarve-rental-properties.co.uk - The Largest Bittorent System Login   |    Register
Latest Articles
Most searched
Hot torrents
Movie Torrents
View Torrent Info: Black Mirror: Bandersnatch (2018) [720p] [YTS] [YIFY]
View Torrent Info: Wheely (2018) [720p] [YTS] [YIFY]
View Torrent Info: Frenzy (2018) [720p] [YTS] [YIFY]
View Torrent Info: The Oath (2018) [720p] [YTS] [YIFY]
View Torrent Info: Attraction (2017) [720p] [YTS] [YIFY]
View Torrent Info: The Christmas Contract (2018) [720p] [YTS] [YIFY]
View Torrent Info: The Old Man & the Gun (2018) [720p] [YTS] [YIFY]
View Torrent Info: Over the Top (1987) [720p] [YTS] [YIFY]
View Torrent Info: Pandora (2016) [720p] [YTS] [YIFY]
View Torrent Info: Uninhabited (2010) [720p] [YTS] [YIFY]
Hot torrents
TV Torrents
View Torrent Info: Vikings.S05E15.HDTV.x264-BATV[eztv]
View Torrent Info: the.orville.s02e01.web.x264-tbs[eztv]
View Torrent Info: The.ABC.Murders.S01E03.HDTV.x264-KETTLE[eztv]
View Torrent Info: Midnight.Texas.S02E09.HDTV.x264-KILLERS[eztv]
View Torrent Info: Vikings.S05E15.iNTERNAL.480p.x264-mSD[eztv]
View Torrent Info: the.abc.murders.s01e02.hdtv.x264-mtb[eztv]
View Torrent Info: Outlander.S04E09.480p.x264-mSD[eztv]
View Torrent Info: the.abc.murders.s01e01.hdtv.x264-mtb[eztv]
View Torrent Info: Ray.Donovan.S06E10.WEB.x264-PHOENiX[eztv]
View Torrent Info: van.helsing.s03e13.web.x264-tbs[eztv]
east-algarve-rental-properties.co.uk > Categories > Movies torrents > HD torrents


Browse Movies torrents

Sorry.to.Bother.You.2018.1080p.WEB-DL.DD5.1.H264.With.Sample.LLG torrent



Download torrent: Download Sorry.to.Bother.You.2018.1080p.WEB-DL.DD5.1.H264.With.Sample.LLG torrent Magnet link Bookmark Torrent: Sorry.to.Bother.You.2018.1080p.WEB-DL.DD5.1.H264.With.Sample.LLG Sorry.to.Bother.You.2018.1080p.WEB-DL.DD5.1.H264.With.Sample.LLG torrent | if not working, try instead: Magnet Link
Info hash: 2BDF6BA28FC2C61F415287858E8B5D572E272B52
Category: Categories > Movies torrents > HD torrents
Trackers:
13    View all torrent trackers >
Health:
 seeds: 0 ,  leechers: 0 |  Update >
Torrent language:  
Total Size: 1.70 GB
Torrent status: Added by trusted uploader Added by trusted uploader Trusted Uploader Site Friend Superman Sun
Uploader: Trusted Uploader Site Friend Superman Sun
Torrent added: 2019-01-01 09:08:53
 

Download Sorry.to.Bother.You.2018.1080p.WEB-DL.DD5.1.H264.With.Sample.LLG torrent if not working, try downloading torrent using Download Sorry.to.Bother.You.2018.1080p.WEB-DL.DD5.1.H264.With.Sample.LLG via Magnet Link




Torrent Description

Quote:




******************************Thumbnail:**********************



******************************Screenshots:********************

Screenshot 1

Screenshot 2

Screenshot 3

Screenshot 4

Screenshot 5

Screenshot 6

Screenshot 7

Screenshot 8

Screenshot 9

Screenshot 0


******************************************************

18+Sorry.to.Bother.You.2018.1080p.WEB-DL.DD5.1.H264.With.Sample.LLG.mp4
Format : MPEG-4
Format profile : Base Media
Codec ID : isom (isom/iso2/avc1/mp41)
File size : 1.70 GiB
Duration : 1 h 51 min
Overall bit rate : 2 196 kb/s


Video
ID : 1
Format : AVC
Format/Info : Advanced Video Codec
Format profile : [email protected]
Format settings : CABAC / 4 Ref Frames
Format settings, CABAC : Yes
Format settings, RefFrames : 4 frames
Codec ID : avc1
Codec ID/Info : Advanced Video Coding
Duration : 1 h 51 min
Bit rate : 2 000 kb/s
Width : 1 920 pixels
Height : 802 pixels
Display aspect ratio : 2.40:1
Frame rate mode : Constant
Frame rate : 23.976 (23976/1000) FPS
Color space : YUV
Chroma subsampling : 4:2:0
Bit depth : 8 bits
Scan type : Progressive
Bits/(Pixel*Frame) : 0.054
Stream size : 1.50 GiB (88%)


Audio
ID : 2
Format : AC-3
Format/Info : Audio Coding 3
Commercial name : Dolby Digital
Codec ID : ac-3
Duration : 1 h 51 min
Bit rate mode : Constant
Bit rate : 256 kb/s
Channel(s) : 6 channels
Channel layout : L R C LFE Ls Rs
Sampling rate : 48.0 kHz
Frame rate : 31.250 FPS (1536 SPF)
Bit depth : 16 bits
Compression mode : Lossy
Stream size : 203 MiB (12%)
Language : English
Service kind : Complete Main
Default : Yes
Alternate group : 1




******************************************************




#LifeLongg -> To avoid fakes, ALWAYS check that the torrent was added on east-algarve-rental-properties.co.uk by LifeLongg

http://east-algarve-rental-properties.co.uk/



Download Sorry.to.Bother.You.2018.1080p.WEB-DL.DD5.1.H264.With.Sample.LLG torrent


Comments (please add your comment)
No comments



Home - Browse Torrents - Upload Torrent - Stat - Forum - FAQ - Login
east-algarve-rental-properties.co.uk is in compliance with copyrights
2006-2018 east-algarve-rental-properties.co.uk
Sitemapthe gifted s02e07 web x264-tbs[eztv] | Weekly Idol Episode 304 | Most Bids